Текущее время: 15 авг 2018, 13:58




Начать новую тему Ответить на тему  [ Сообщений: 4 ] 
Проблемы с видео на Cowon J3 
Автор Сообщение
Аватара пользователя

Зарегистрирован: 07 фев 2012, 00:25
Сообщения: 1
Благодарил(а): раз.
Поблагодарили: раз.
Плеер: Cowon J3
Наушники: Philips SHE3570PK
 Проблемы с видео на Cowon J3
Здравствуйте.У меня такая проблема: видео которое скидывается на плеер не проигрывается, просто выдаёт ошибку.Скидываю поддерживаемые форматы, avi, mpeg....играется видео только разрешения 320x240(а HD к примеру нет), а качество этого видео просто ужасно....=\\\\Не знаю что делать...


07 фев 2012, 00:31
Профиль
Модератор
Аватара пользователя

Зарегистрирован: 16 сен 2010, 20:28
Сообщения: 2592
Откуда: Москва
Благодарил(а): раз.
Поблагодарили: раз.
Плеер: Cowon J3 + FiiO E7
Наушники: ATH-CM700Ti+HiFiMAN RE-0
Сообщение Re: Проблемы с видео на Cowon J3
Ну, покажите инфу от этих файлов.
Главное, чтоб не только, как вы говорите, "формат" поддерживался, еще и какой кодек использовался, какие настройки сжатия.
И ХД нашему плееру - много. Этож просто плеер. Для ХД надо было другую модель выбирать, акцентированную на видео, 3Д, например.
Обычный ДВДрип, максимум на 1,4 Гига, ну и разрешение, близкое к экранному, чтоб совсем без тормозов.
И звук лучше просто в мп3.
В общем, ссылочку на скачиваемый файл покажите!
На торрентах обычно подробные характеристики указаны.

_________________
"...Если есть штырёк, то значит где-то рядом паз
Надо было вставлять, пока не начался ДЖАЗ..."


07 фев 2012, 07:12
Профиль
Аватара пользователя

Зарегистрирован: 21 сен 2011, 07:28
Сообщения: 305
Откуда: Алтай
Благодарил(а): раз.
Поблагодарили: раз.
Плеер: cowon c2 fw 1.17
Наушники: Creative Aurvana In-Ear 3
Сообщение Re: Проблемы с видео на Cowon J3
(Armin.Only).2010.BDRip.XviD.AC3.-HQRips.avi
Format : AVI
Format profile : OpenDML
File size : 2.40 GiB
Duration : 2h 15mn
Overall bit rate : 2 529 Kbps
Writing application : VirtualDubMod 1.5.10.2 (build 2542/release)
Codec ID : XVID
Codec ID/Hint : XviD
Duration : 2h 15mn
Bit rate : 2 069 Kbps
Width : 720 pixels
Height : 400 pixels
Display aspect ratio : 16:9
Frame rate : 25.000 fps
Resolution : 8 bits
Colorimetry : 4:2:0
Scan type : Progressive
Bits/(Pixel*Frame) : 0.287
Stream size : 1.96 GiB (82%)
Audio
ID : 1
Format : AC-3
Format/Info : Audio Coding 3
Codec ID : 2000
Duration : 2h 15mn
Bit rate mode : Constant
Bit rate : 448 Kbps
Channel(s) : 6 channels
Channel positions : Front: L C R, Surround: L R, LFE
Sampling rate : 48.0 KHz
Stream size : 435 MiB (18%)
Alignment : Split accross interleaves
Interleave, duratio : 40 ms (1.00 video frame)
Interleave, preload duration : 500 ms
У меня с2 вот это без проблем показывает и видео и звук все нормально только начинает плеер грется но не сильно (большего размера не пробывал ) Думаю J3 тож потянет


07 фев 2012, 11:58
Профиль
Модератор
Аватара пользователя

Зарегистрирован: 16 сен 2010, 20:28
Сообщения: 2592
Откуда: Москва
Благодарил(а): раз.
Поблагодарили: раз.
Плеер: Cowon J3 + FiiO E7
Наушники: ATH-CM700Ti+HiFiMAN RE-0
Сообщение Re: Проблемы с видео на Cowon J3
Прошу прощения за некропост.
Наткнулся в сети на следующее: http://www.ixbt.com/multimedia/cowon/j3 ... n-j3.shtml
Пресекая дальнейшие вопросы по видео, так сказать. Если они еще у кого-то возникнут.
:)

_________________
"...Если есть штырёк, то значит где-то рядом паз
Надо было вставлять, пока не начался ДЖАЗ..."


14 апр 2013, 21:54
Профиль
Показать сообщения за:  Поле сортировки  
Начать новую тему Ответить на тему  [ Сообщений: 4 ] 


Кто сейчас на конференции

Сейчас этот форум просматривают: нет зарегистрированных пользователей и гости: 2


Вы не можете начинать темы
Вы не можете отвечать на сообщения
Вы не можете редактировать свои сообщения
Вы не можете удалять свои сообщения
Вы не можете добавлять вложения

Найти:
Перейти: