Текущее время: 20 сен 2018, 17:05




Начать новую тему Ответить на тему  [ Сообщений: 5 ] 
Проблема с видео 
Автор Сообщение
Аватара пользователя

Зарегистрирован: 19 ноя 2011, 12:38
Сообщения: 6
Благодарил(а): раз.
Поблагодарили: раз.
Плеер: cowon 3D, fw 1.04
Наушники: sennheiser ie4 + AKG K450
Сообщение Проблема с видео
Может подскажет кто, почему 3D...
не проигрывает файл с указанными под этим спойлером характеристиками показать
Video
ID : 1
Format : AVC
Format/Info : Advanced Video Codec
Format profile : High 10@L5.0
Format settings, CABAC : Yes
Format settings, ReFrames : 16 frames
Codec ID : V_MPEG4/ISO/AVC
Duration : 22mn 54s
Width : 1 280 pixels
Height : 720 pixels
Display aspect ratio : 16:9
Frame rate : 23.976 fps
Color space : YUV
Chroma subsampling : 4:2:0
Bit depth : 10 bits
Scan type : Progressive
Writing library : x264 core 118 r2085+614 d1cc25d
Encoding settings : cabac=1 / ref=16 / deblock=1:0:0 / analyse=0x3:0x133 / me=umh / subme=10 / psy=1 / fade_compensate=0.70 / psy_rd=0.60:0.50 / mixed_ref=1 / me_range=24 / chroma_me=1 / trellis=2 / 8x8dct=1 / cqm=0 / deadzone=21,11 / fast_pskip=1 / chroma_qp_offset=-4 / threads=18 / sliced_threads=0 / nr=0 / decimate=1 / interlaced=0 / bluray_compat=0 / constrained_intra=0 / fgo=0 / bframes=10 / b_pyramid=2 / b_adapt=2 / b_bias=0 / direct=3 / weightb=1 / open_gop=0 / weightp=2 / keyint=250 / keyint_min=23 / scenecut=40 / intra_refresh=0 / rc_lookahead=40 / rc=crf / mbtree=1 / crf=19.0 / qcomp=0.70 / qpmin=0 / qpmax=81 / qpstep=4 / ip_ratio=1.40 / aq=2:0.80
Language : Russian

Audio
ID : 2
Format : AAC
Format/Info : Advanced Audio Codec
Format profile : LC
Codec ID : A_AAC
Duration : 22mn 54s
Channel(s) : 2 channels
Channel positions : Front: L R
Sampling rate : 48.0 KHz
Compression mode : Lossy

а с указанными здесь проигрывает без проблем показать
Video
ID : 1
Format : AVC
Format/Info : Advanced Video Codec
Format profile : High@L4.1
Format settings, CABAC : Yes
Format settings, ReFrames : 4 frames
Muxing mode : Header stripping
Codec ID : V_MPEG4/ISO/AVC
Duration : 23mn 0s
Width : 1 280 pixels
Height : 720 pixels
Display aspect ratio : 16:9
Frame rate : 23.976 fps
Color space : YUV
Chroma subsampling : 4:2:0
Bit depth : 8 bits
Scan type : Progressive
Title : Original
Writing library : x264 core 119 r2106 07efeb4
Encoding settings : cabac=1 / ref=4 / deblock=1:-1:-1 / analyse=0x3:0x113 / me=umh / subme=9 / psy=1 / psy_rd=0.60:0.20 / mixed_ref=1 / me_range=32 / chroma_me=1 / trellis=2 / 8x8dct=1 / cqm=0 / deadzone=21,11 / fast_pskip=0 / chroma_qp_offset=-3 / threads=6 / sliced_threads=0 / nr=0 / decimate=0 / interlaced=0 / bluray_compat=0 / constrained_intra=0 / bframes=3 / b_pyramid=0 / b_adapt=2 / b_bias=0 / direct=3 / weightb=1 / open_gop=0 / weightp=2 / keyint=240 / keyint_min=1 / scenecut=50 / intra_refresh=0 / rc=crf / mbtree=0 / crf=20.5 / qcomp=0.60 / qpmin=0 / qpmax=28 / qpstep=8 / ip_ratio=1.40 / pb_ratio=1.30 / aq=1:0.50
Language : Japanese
Color primaries : BT.709-5, BT.1361, IEC 61966-2-4, SMPTE RP177
Transfer characteristics : BT.709-5, BT.1361
Matrix coefficients : BT.709-5, BT.1361, IEC 61966-2-4 709, SMPTE RP177

Audio #1
ID : 2
Format : AAC
Format/Info : Advanced Audio Codec
Format profile : LC
Codec ID : A_AAC
Duration : 23mn 0s
Channel(s) : 2 channels
Channel positions : Front: L R
Sampling rate : 48.0 KHz
Compression mode : Lossy
Title : Eladiel & JAM
Language : Russian

Что же он не может съесть?

Добавлено спустя 39 минут 6 секунд:

Судя по всему не ест наш всеядный плеер 10bit'ное видео.


16 янв 2012, 00:21
Профиль ICQ
Модератор
Аватара пользователя

Зарегистрирован: 01 фев 2009, 11:43
Сообщения: 4507
Откуда: fairyland
Благодарил(а): раз.
Поблагодарили: раз.
Плеер: FiiO X5
Наушники: UM Merlin
Сообщение Re: Проблема с видео
kilma
А еще 16 рефреймов и 10 бфреймов ему тоже не по душе :)

_________________
Лучше иметь храброе сердце и страдать от зла других, чем бояться того, что может случиться...
Хорошие художники копируют - великие художники воруют...


16 янв 2012, 06:07
Профиль
Аватара пользователя

Зарегистрирован: 19 ноя 2011, 12:38
Сообщения: 6
Благодарил(а): раз.
Поблагодарили: раз.
Плеер: cowon 3D, fw 1.04
Наушники: sennheiser ie4 + AKG K450
Сообщение Re: Проблема с видео
bdwind писал(а):
kilma
А еще 16 рефреймов и 10 бфреймов ему тоже не по душе :)
Спасибо, буду и это иметь ввиду.

Не подскажете,
тут, что его смущает? показать
Format : AVI
Format/Info : Audio Video Interleave
File size : 245 MiB
Duration : 24mn 10s
Overall bit rate mode : Variable
Overall bit rate : 1 417 Kbps
Writing application : Nandub v1.0rc2
Writing library : Nandub build 1853/release

Video
ID : 0
Format : VC-1
Codec ID : WMV3
Codec ID/Info : Windows Media Video 9
Codec ID/Hint : WMV3
Duration : 24mn 10s
Bit rate : 1 209 Kbps
Width : 640 pixels
Height : 480 pixels
Display aspect ratio : 4:3
Frame rate : 119.880 fps
Bit depth : 8 bits
Compression mode : Lossy
Bits/(Pixel*Frame) : 0.033
Stream size : 209 MiB (85%)

Audio
ID : 1
Format : MPEG Audio
Format version : Version 1
Format profile : Layer 3
Mode : Joint stereo
Mode extension : MS Stereo
Codec ID : 55
Codec ID/Hint : MP3
Duration : 24mn 10s
Bit rate mode : Variable
Bit rate : 177 Kbps
Channel(s) : 2 channels
Sampling rate : 48.0 KHz
Compression mode : Lossy
Stream size : 30.6 MiB (12%)
Alignment : Aligned on interleaves
Interleave, duration : 24 ms (2.88 video frames)
Writing library : LAME3.90.
Encoding settings : -m j -V 2 -q 2 -lowpass 19 --vbr-old


Частота кадров?


20 янв 2012, 01:30
Профиль ICQ
Модератор
Аватара пользователя

Зарегистрирован: 01 фев 2009, 11:43
Сообщения: 4507
Откуда: fairyland
Благодарил(а): раз.
Поблагодарили: раз.
Плеер: FiiO X5
Наушники: UM Merlin
Сообщение Re: Проблема с видео
Думаю да, это он точно не смогет воспроизвести...

_________________
Лучше иметь храброе сердце и страдать от зла других, чем бояться того, что может случиться...
Хорошие художники копируют - великие художники воруют...


20 янв 2012, 05:06
Профиль
Аватара пользователя

Зарегистрирован: 19 апр 2010, 20:29
Сообщения: 147
Откуда: СПб
Благодарил(а): раз.
Поблагодарили: раз.
Плеер: Cowon V5, FW 1.16 EN
Наушники: CX 300-II
Сообщение Re: Проблема с видео
bdwind писал(а):
А еще 16 рефреймов и 10 бфреймов ему тоже не по душе :)
Ему плевать на них. Даже V5 прекрасно жрет любое 720p видео с ними.

А вот 10 бит не поддерживает и вряд ли будет.

По поводу второго видео... 120 фпс это норма для avi. Дело в том, что этот контейнер не поддерживает VFR (переменный фпс), поэтому чтобы получить 24 и 30 фпс в одном видео там есть костыль под названием пустые кадры + 120 фпс (число кратное 24 и 30). Костыль костылем, но все подряд его поддерживает.
Так что мне кажется что виновник - кодек, хотя его поддержва заявлена... Но WMV криво поддерживается всегда и везде.


28 янв 2012, 15:28
Профиль ICQ
Показать сообщения за:  Поле сортировки  
Начать новую тему Ответить на тему  [ Сообщений: 5 ] 


Кто сейчас на конференции

Сейчас этот форум просматривают: нет зарегистрированных пользователей и гости: 1


Вы не можете начинать темы
Вы не можете отвечать на сообщения
Вы не можете редактировать свои сообщения
Вы не можете удалять свои сообщения
Вы не можете добавлять вложения

Найти:
Перейти: