Текущее время: 18 июл 2018, 01:50




Начать новую тему Ответить на тему  [ Сообщений: 8 ] 
Проблемы с плеером, прошу помощи. 
Автор Сообщение
Аватара пользователя

Зарегистрирован: 01 июн 2011, 20:11
Сообщения: 13
Благодарил(а): раз.
Поблагодарили: раз.
Плеер: Cowon 3D
Сообщение Проблемы с плеером, прошу помощи.
За все пользование плеером, всегда использовал HD фильмы, Full HD не использовал, т.к. не знал что можно плеер отформатировать в ExFat...ну отформатировал, залил новую прошивку 1.05, плеер ожил, т.к. до этого он реально сильно тормозил и тупил, тут стало все вполне приемлемо(но все равно не летать)....думаю ладно, фиг с этим корейским языком, буду на этой прошивке, но заметил глюк, файлы самопроизвольно исчезают с плеера, с внутренней памяти самого плеера, я залил музыку и фильмы, и опа, утром половины нет(хотя место занято при этом).....форматирование повторное не помогло...в итоге откатился на 1.04....пока не знаю как, НО соответственно первый вопрос, что могло произойти?как вылечить?или теперь только СЦ? могло ли повлиять что я все форматнул с NAND, все папки что были при покупке, и в чистую прошил уже прошивку...он сам создал папки, но папки музыка, видео и т.п. я уже создавал сам, т.к. их не было после прошивки.

и второе, заявлена поддержка Full HD видео, кидаю например на него фильм, с такими параметрами
Format : Matroska
Format version : Version 2
File size : 7.30 GiB
Duration : 1h 44mn
Overall bit rate : 9 977 Kbps
Movie name : Oblasti tmy / 2011 / Release by Vaippp / OpenSharing Team
Encoded date : UTC 2011-05-19 09:38:05
Writing application : mkvmerge v4.7.0 ('Just Like You Imagined') сборка от Apr 21 2011 01:13:14
Writing library : libebml v1.2.0 + libmatroska v1.1.0

Video
ID : 1
Format : AVC
Format/Info : Advanced Video Codec
Format profile : High@L4.1
Format settings, CABAC : Yes
Format settings, ReFrames : 5 frames
Codec ID : V_MPEG4/ISO/AVC
Duration : 1h 44mn
Bit rate : 8 474 Kbps
Width : 1 920 pixels
Height : 800 pixels
Display aspect ratio : 2.40:1
Frame rate : 23.976 fps
Color space : YUV
Chroma subsampling : 4:2:0
Bit depth : 8 bits
Scan type : Progressive
Bits/(Pixel*Frame) : 0.230
Stream size : 6.05 GiB (83%)
Title : BDRip by Vaippp
Writing library : x264 core 114 r1924 08d04a4
Encoding settings : cabac=1 / ref=5 / deblock=1:-1:-1 / analyse=0x3:0x133 / me=umh / subme=8 / psy=1 / psy_rd=1.00:0.10 / mixed_ref=1 / me_range=16 / chroma_me=1 / trellis=1 / 8x8dct=1 / cqm=0 / deadzone=21,11 / fast_pskip=1 / chroma_qp_offset=-3 / threads=12 / sliced_threads=0 / nr=0 / decimate=1 / interlaced=0 / constrained_intra=0 / bframes=3 / b_pyramid=2 / b_adapt=1 / b_bias=0 / direct=1 / weightb=1 / open_gop=0 / weightp=2 / keyint=250 / keyint_min=23 / scenecut=40 / intra_refresh=0 / rc_lookahead=0 / rc=2pass / mbtree=0 / bitrate=8474 / ratetol=1.0 / qcomp=0.65 / qpmin=0 / qpmax=69 / qpstep=4 / cplxblur=20.0 / qblur=0.5 / vbv_maxrate=50000 / vbv_bufsize=50000 / nal_hrd=none / ip_ratio=1.40 / pb_ratio=1.30 / aq=1:1.00
Language : English
Default : Yes
Forced : No

Audio
ID : 2
Format : DTS
Format/Info : Digital Theater Systems
Codec ID : A_DTS
Duration : 1h 44mn
Bit rate mode : Constant
Bit rate : 1 510 Kbps
Channel(s) : 6 channels
Channel positions : Front: L C R, Side: L R, LFE
Sampling rate : 48.0 KHz
Bit depth : 24 bits
Compression mode : Lossy
Stream size : 1.10 GiB (15%)
Title : DUB
Language : Russian
Default : Yes
Forced : No

но видео тормозит, идет не плавно совершенно, и так почти со всеми Full HD фильмами, тоже самое с 3D фильмами, пробовал Аватар, местами нормали, в опред. сценах заедает все, тормозит звук\видео, та же ситуация с фильмом Тор, в 3D тоже, тоже местами тормозит. В чем проблема? 720 крутит без проблем(правда 3D в 720 не пробовал)....что не так в параметрах видео?на что стоит обращать внимание?просто выходит кривая какая то поддержка 1080...

Спасибо! Очень рассчитываю на помощь =(


05 фев 2012, 15:40
Профиль
Аватара пользователя

Зарегистрирован: 04 апр 2009, 12:58
Сообщения: 562
Откуда: Масква
Благодарил(а): раз.
Поблагодарили: раз.
Плеер: Cowon 3D
Наушники: Westone2 + Numark PHX usb
Сообщение Re: Проблемы с плеером, прошу помощи.
Блин, я даже не знаю чего ответить... Чо-то не замечал такого. Правда насчёт семи гигов не помню, но пять с половиной смотрел точно... При перемотке плеер долго отдуплялся, но во время просмотра не тормозил.

_________________
Don't shoot the pianist. He is doing his best.


06 фев 2012, 23:37
Профиль
Аватара пользователя

Зарегистрирован: 01 июн 2011, 20:11
Сообщения: 13
Благодарил(а): раз.
Поблагодарили: раз.
Плеер: Cowon 3D
Сообщение Re: Проблемы с плеером, прошу помощи.
werty
в общем ситуация след. - пропадание файлом вылечил откатом на русскую 1.04, к сожалению 1.05 вставать нормально не хочет, че то не так видимо, раз файлы пропадают, хотя пробовал пере установить раз 10. Что касаемо тормозов видео, странная ситуация, например берем фильм "Белый плен" весит 21.2 гига, не тормозит, все шикарно, берем "Трансформеры 3" 19 гигов, тормозит, но не всегда, а сценами, но сцен таких много, если смотреть отчеты media info то я так и не понял что конкретно не по душе плееру, просто понять бы причину, и тогда можно допиливать самому кино, и все будет хорошо, если не трудно, можешь взглянуть и сказать что не нравится плееру?
Белый плен
Format : BDAV
Format/Info : Blu-ray Video
File size : 21.3 GiB
Duration : 2h 0mn
Overall bit rate mode : Variable
Overall bit rate : 25.3 Mbps
Maximum Overall bit rate : 35.5 Mbps

Video
ID : 4113 (0x1011)
Menu ID : 1 (0x1)
Format : MPEG Video
Format version : Version 2
Format profile : Main@High
Format settings, BVOP : Yes
Format settings, Matrix : Default
Format settings, GOP : M=3, N=12
Codec ID : 2
Duration : 2h 0mn
Bit rate mode : Variable
Bit rate : 19.3 Mbps
Maximum bit rate : 28.0 Mbps
Width : 1 920 pixels
Height : 1 080 pixels
Display aspect ratio : 16:9
Frame rate : 23.976 fps
Color space : YUV
Chroma subsampling : 4:2:0
Bit depth : 8 bits
Scan type : Progressive
Compression mode : Lossy
Bits/(Pixel*Frame) : 0.388
Stream size : 16.2 GiB (76%)

Audio #1
ID : 4352 (0x1100)
Menu ID : 1 (0x1)
Format : AC-3
Format/Info : Audio Coding 3
Mode extension : CM (complete main)
Codec ID : 129
Duration : 2h 0mn
Bit rate mode : Constant
Bit rate : 384 Kbps
Channel(s) : 6 channels
Channel positions : Front: L C R, Side: L R, LFE
Sampling rate : 48.0 KHz
Bit depth : 16 bits
Compression mode : Lossy
Stream size : 331 MiB (2%)

Audio #2
ID : 4353 (0x1101)
Menu ID : 1 (0x1)
Format : PCM
Format settings, Endianness : Big
Format settings, Sign : Signed
Muxing mode : Blu-ray
Codec ID : 128
Duration : 2h 0mn
Bit rate mode : Constant
Bit rate : 4 608 Kbps
Channel(s) : 6 channels
Channel positions : Front: L C R, Side: L R, LFE
Sampling rate : 48.0 KHz
Bit depth : 16 bits
Delay relative to video : 1s 0ms
Stream size : 3.88 GiB (18%)


Трансформеры 3
Format : Matroska
Format version : Version 2
File size : 19.6 GiB
Duration : 2h 34mn
Overall bit rate : 18.2 Mbps
Movie name : -=UNIONGANG.TV=-
Encoded date : UTC 2011-09-30 15:30:46
Writing application : mkvmerge v5.0.0 ('Die Wahre Liebe') built on Sep 25 2011 20:33:49
Writing library : libebml v1.2.2 + libmatroska v1.3.0

Video
ID : 1
Format : AVC
Format/Info : Advanced Video Codec
Format profile : High@L4.1
Format settings, CABAC : Yes
Format settings, ReFrames : 5 frames
Codec ID : V_MPEG4/ISO/AVC
Duration : 2h 34mn
Bit rate : 16.0 Mbps
Width : 1 920 pixels
Height : 800 pixels
Display aspect ratio : 2.40:1
Frame rate : 23.976 fps
Color space : YUV
Chroma subsampling : 4:2:0
Bit depth : 8 bits
Scan type : Progressive
Bits/(Pixel*Frame) : 0.434
Stream size : 16.9 GiB (86%)
Title : Transformers:Dark.Of.The.Moon.2011
Writing library : x264 core 116 r2074 2641b9e
Encoding settings : cabac=1 / ref=5 / deblock=1:-3:-3 / analyse=0x3:0x113 / me=umh / subme=11 / psy=1 / psy_rd=1.05:0.10 / mixed_ref=1 / me_range=48 / chroma_me=1 / trellis=2 / 8x8dct=1 / cqm=2 / deadzone=21,11 / fast_pskip=0 / chroma_qp_offset=-2 / threads=8 / sliced_threads=0 / nr=0 / decimate=1 / interlaced=0 / bluray_compat=0 / constrained_intra=0 / bframes=6 / b_pyramid=2 / b_adapt=2 / b_bias=0 / direct=3 / weightb=1 / open_gop=0 / weightp=2 / keyint=250 / keyint_min=23 / scenecut=40 / intra_refresh=0 / rc_lookahead=60 / rc=2pass / mbtree=1 / bitrate=16000 / ratetol=1.0 / qcomp=0.70 / qpmin=1 / qpmax=63 / qpstep=4 / cplxblur=20.0 / qblur=0.5 / vbv_maxrate=45000 / vbv_bufsize=40000 / nal_hrd=none / ip_ratio=1.40 / aq=2:0.90
Language : English
Default : Yes
Forced : No

Audio #1
ID : 2
Format : AC-3
Format/Info : Audio Coding 3
Mode extension : CM (complete main)
Codec ID : A_AC3
Duration : 2h 34mn
Bit rate mode : Constant
Bit rate : 640 Kbps
Channel(s) : 6 channels
Channel positions : Front: L C R, Side: L R, LFE
Sampling rate : 48.0 KHz
Bit depth : 16 bits
Compression mode : Lossy
Stream size : 707 MiB (4%)
Title : AC3 640 kbps
Language : Russian
Default : Yes
Forced : No

Audio #2
ID : 3
Format : DTS
Format/Info : Digital Theater Systems
Codec ID : A_DTS
Duration : 2h 34mn
Bit rate mode : Constant
Bit rate : 1 510 Kbps
Channel(s) : 6 channels
Channel positions : Front: L C R, Side: L R, LFE
Sampling rate : 48.0 KHz
Bit depth : 24 bits
Compression mode : Lossy
Stream size : 1.63 GiB (8%)
Title : DTS-5.1 1510 kbps
Language : English
Default : No
Forced : No

Text #1
ID : 4
Format : UTF-8
Codec ID : S_TEXT/UTF8
Codec ID/Info : UTF-8 Plain Text
Language : Russian
Default : Yes
Forced : No

Text #2
ID : 5
Format : UTF-8
Codec ID : S_TEXT/UTF8
Codec ID/Info : UTF-8 Plain Text
Language : English
Default : No
Forced : No


ты не подумай что я маньяк, и смотрю это все на плеере, для плеера и 720 за глаза, НО я вывожу на ящик это по HDMI и на ящике тоже тормозит, раз выводит плеер изображение...хотелось бы разобраться, почему поддержка 1080р заявлена, но как то сомнительно реализована.
Спасибо!


ЗЫ забыл спросить, я помню, ты самый первый вроде владелец данного девайса, если память не изменяет еще с корейской прошивкой базовой? хочу узнать, как в целом работа плеера?быстро работает или затупляет? как играет FLAC? я просто только во флаке слушаю, да звучание супер(после настройки эквалайзера в ручную(кстати нужны настройки, стучи в ЛС :wink: ))но вот переключение между треками или между разными исполнителями, происходит с задержкой, заметной причем, если мп3, то переключает шустро, с флаком проблемнее конечно.


07 фев 2012, 21:12
Профиль
Модератор
Аватара пользователя

Зарегистрирован: 01 фев 2009, 11:43
Сообщения: 4507
Откуда: fairyland
Благодарил(а): раз.
Поблагодарили: раз.
Плеер: FiiO X5
Наушники: UM Merlin
Сообщение Re: Проблемы с плеером, прошу помощи.
mpeg2 vs x264, вот и тормозит x264 потому что ему ресурсов для декодинга надо раза в три больше...

_________________
Лучше иметь храброе сердце и страдать от зла других, чем бояться того, что может случиться...
Хорошие художники копируют - великие художники воруют...


08 фев 2012, 05:06
Профиль
Аватара пользователя

Зарегистрирован: 28 ноя 2011, 12:19
Сообщения: 30
Благодарил(а): раз.
Поблагодарили: раз.
Плеер: COWON 3D
Наушники: ATH CKS90
Сообщение Re: Проблемы с плеером, прошу помощи.
По поводу тормозов ещё хочется добавить, что в мануале сказано, что нормальне условия работы - при температуре от 0 до 40 градусов. А при просмотре FullHD он сильно нагревается (особенно если при этом выполняется зарядка или он подключён к телеку). Так вот замечал, что когда он горячий - он сильнее тормозит. При нормальной температуре тормозов не замечал. (мб даже отдельную тему сделать по поводу охлаждения плеера при просмотре "тяжёлого" видео ?)


08 фев 2012, 10:55
Профиль
Аватара пользователя

Зарегистрирован: 01 июн 2011, 20:11
Сообщения: 13
Благодарил(а): раз.
Поблагодарили: раз.
Плеер: Cowon 3D
Сообщение Re: Проблемы с плеером, прошу помощи.
bdwind
скорее всего, хотя "Люди Х" в том же 1920 на (вот тут только "легче") на 816, все шикарно проет, в том же х264, но видимо что реал ему из кодеком не по душе( кстати как считаешь если из х264 перегонять в тот же FullHD но только в MPEG , сильно в качестве потеряю? :beer:

ViktoR
вооот такого точно не замечал, смотрел в HD 720р всегда, и было дело летом, когда температура была 32 градуса, плюс он сам греется при просмотре, ничего не тормозило....дело точно не в этом, т.к. щас спец. даже проверил на морозе, плеер был холодный, и тормозило точно так же в тех же сценах что и в комнатных условиях....так что не в температуре дело. хотя такой вариант имеет место быть :beer:

ЗЫ ВСЕМ спасибо за помощь!!!

Кстати реально не понятен момент прошивки, пробовал прошить все существующие коррейские прошивки(плеер покупал в России, уже с рус. прошивкой) так вот на всех одинаковое поведение, странная работа флеш накопителя(скорость записи падает постоянно) и сами по себе исчезают файлы с плеера, на русской прошивке 1.04 такого нет, все четко что с записью, что с хранением, но это грустно, мне сама по себе очень понравилась 1.05(


08 фев 2012, 20:30
Профиль
Модератор
Аватара пользователя

Зарегистрирован: 01 фев 2009, 11:43
Сообщения: 4507
Откуда: fairyland
Благодарил(а): раз.
Поблагодарили: раз.
Плеер: FiiO X5
Наушники: UM Merlin
Сообщение Re: Проблемы с плеером, прошу помощи.
Humane
Он и в х264 прекрасно поймет и не будет тормозить, просто надо использовать либо main либо бейслейн профиль (кто бы чтобы не писал)... При этом будет теряться компрессия, но не качество, при высоком битрейте...

_________________
Лучше иметь храброе сердце и страдать от зла других, чем бояться того, что может случиться...
Хорошие художники копируют - великие художники воруют...


08 фев 2012, 20:40
Профиль
Аватара пользователя

Зарегистрирован: 01 июн 2011, 20:11
Сообщения: 13
Благодарил(а): раз.
Поблагодарили: раз.
Плеер: Cowon 3D
Сообщение Re: Проблемы с плеером, прошу помощи.
bdwind
все понятно...теперь точно понял, именно где эти профили, ничего не тормозит, так что придется все кино скаченное перегонять, уфф, ну и работка предстоит=) Огромное спасибо за помощь!


08 фев 2012, 20:49
Профиль
Показать сообщения за:  Поле сортировки  
Начать новую тему Ответить на тему  [ Сообщений: 8 ] 


Кто сейчас на конференции

Сейчас этот форум просматривают: нет зарегистрированных пользователей и гости: 1


Вы не можете начинать темы
Вы не можете отвечать на сообщения
Вы не можете редактировать свои сообщения
Вы не можете удалять свои сообщения
Вы не можете добавлять вложения

Найти:
Перейти:  
cron